Welcome to the AVClub.
Results 1 to 10 of 10
  1. #1
    Established Member
    Join Date
    Jun 2008
    Posts
    124

    YI 4K + video files

    YI 4K + action camera, sjcam 4000+
    usb .
    sjcam 4000+ mp4 YI 4K +. OLED LG EG920V.
    , , 1
    mkv free MKVToolNix.
    pc .
    camera YI 4K + , pc ( power dvd ),
    .( ).
    firmware , .
    2 player .
    1 mkv MKVTooINix .

    , .
    .
    mp4 ;



  2. #2

    Join Date
    Jan 2010
    Location
    Posts
    5,301

    : YI 4K + video files

    , .
    4/3 : Olympus E-1, Leica DigiLux 3, C-2.0X, C-1.4X, ZD 14-35mm/2, ZD25/2.8, ZD 150mm/2.0, ZD SWD 50-200mm/2.8-3.5, Lensbaby 3G, Flash FL50R, MacroFlash STF-22.
    : Olympus OM-2N, OM-4 & .
    m4/3 : Olympus 1.2, PenF, EPL5(IR), GF-7+12-32mm, Lumix 7-14mm, mZD 12-100,
    Lumix 35-100mm, mZD 8mm fisheye, PLeica 15mm, Lumix 20mm, PLeica 25mm, Voiglander 25mm, , mZD 60mm macro, mZD 75mm, Lensbaby composer pro+Edge 50, FL-600R.

  3. #3

    Join Date
    Aug 2007
    Location
    Posts
    18,338

    Re: YI 4K + video files

    codec player .
    media player .
    • Life is too short to remove USB safely...

  4. #4
    AVClub Addicted Member
    Join Date
    Jun 2006
    Location
    Posts
    2,102

    Re: YI 4K + video files

    LG tv 4K action:
    EKEN Ultra 4K H9 Series H9R

  5. #5

    Join Date
    Aug 2007
    Location
    Posts
    18,338

    Re: YI 4K + video files

    .
    , () media players .
    mini pc (nuc, -beelink/voyo ).
    • Life is too short to remove USB safely...

  6. #6

  7. #7
    AVClub Addicted Member
    Join Date
    Dec 2007
    Posts
    2,902

    : YI 4K + video files

    media info:

    General
    Complete name : 4K60FPS.MP4
    Format : MPEG-4
    Format profile : JVT
    Codec ID : avc1 (avc1/isom)
    File size : 180 MiB
    Duration : 10 s 594 ms
    Overall bit rate mode : Variable
    Overall bit rate : 142 Mb/s
    Encoded date : UTC 2017-12-02 20:35:38
    Tagged date : UTC 2017-12-02 20:35:38

    Video
    ID : 1
    Format : AVC
    Format/Info : Advanced Video Codec
    Format profile : High@L5.2
    Format settings : CABAC / 1 Ref Frames
    Format settings, CABAC : Yes
    Format settings, RefFrames : 1 frame
    Format settings, GOP : M=1, N=8
    Codec ID : avc1
    Codec ID/Info : Advanced Video Coding
    Duration : 10 s 594 ms
    Bit rate mode : Variable
    Bit rate : 137 Mb/s
    Maximum bit rate : 135 Mb/s
    Width : 3 840 pixels
    Height : 2 160 pixels
    Display aspect ratio : 16:9
    Frame rate mode : Constant
    Frame rate : 59.940 (60000/1001) FPS
    Color space : YUV
    Chroma subsampling : 4:2:0
    Bit depth : 8 bits
    Scan type : Progressive
    Bits/(Pixel*Frame) : 0.275
    Stream size : 173 MiB (96%)
    Title : XiaoYi AVC
    Language : English
    Encoded date : UTC 2017-12-02 20:35:38
    Tagged date : UTC 2017-12-02 20:35:38
    Color range : Full
    Color primaries : BT.709
    Transfer characteristics : BT.709
    Matrix coefficients : BT.709

    Audio
    ID : 2
    Format : AAC
    Format/Info : Advanced Audio Codec
    Format profile : LC
    Codec ID : mp4a-40-2
    Duration : 10 s 581 ms
    Bit rate mode : Constant
    Bit rate : 128 kb/s
    Nominal bit rate : 48.0 kb/s
    Channel(s) : 2 channels
    Channel positions : Front: L R
    Sampling rate : 48.0 kHz
    Frame rate : 46.875 FPS (1024 SPF)
    Compression mode : Lossy
    Stream size : 166 KiB (0%)
    Title : XiaoYi AAC
    Language : English
    Encoded date : UTC 2017-12-02 20:35:38
    Tagged date : UTC 2017-12-02 20:35:38


    M High@L5.2;

  8. #8
    Established Member
    Join Date
    Jun 2008
    Posts
    124

    Re: : YI 4K + video files

    , sjcam ;

  9. #9
    AVClub Fanatic
    Join Date
    Jun 2006
    Location
    NEO HRAKLEIO
    Posts
    24,919

    Re: YI 4K + video files

    2 4 TV , Samsung kai LG 557V , .
    .

    firmware LG ...Version 04.20.90

    http://www.lg.com/uk/support/support...ct/lg-55EG920V

  10. #10
    Established Member
    Join Date
    Jun 2008
    Posts
    124

    Re: YI 4K + video files

    Quote Originally Posted by View Post
    2 4 TV , Samsung kai LG 557V , .
    .

    firmware LG ...Version 04.20.90

    http://www.lg.com/uk/support/support...ct/lg-55EG920V

    LG site 04.25.56. 4 2 60fps
    4 60fps iPhone x , 4 30fps . 4 30 fps 2 30fps 1080p 60fps . .

 

 

Thread Information

Users Browsing this Thread

There are currently 1 users browsing this thread. (0 members and 1 guests)

Posting Permissions

  • You may not post new threads
  • You may not post replies
  • You may not post attachments
  • You may not edit your posts
  •  
Back to top