mkv αρχείο 1080p DTS-MA κολλάει σε home cinema LG HX806SH. Γιατί;

sadako

New member
9 June 2009
55
Πήγα τις προάλλες σε ένα φίλο που πήρε home cinema (LG HX806SH), συνέδεσα μέσω της USB θύρας τον εξωτερικό μου δίσκο (external case με εξωτερική τροφοδοσία και usb 2.0) και επιχειρήσαμε να δούμε μια ταινία με DTS-HD (να δούμε και τι ψάρια πιάνει το Home Cinema), ξεκινάει η ταινία, αλλά μετά από 20 δευτερόλεπτα περίπου παγώνει η ταινία. Για την ακρίβεια παγώνει εντελώς το Home Cinema, δεν αποκρίνεται σε τίποτα, ούτε στο τηλεχειριστήριο ούτε στα κουμπιά πάνω στην φέτα, μόνο αν το κλείσεις με παρατεταμένο πάτημα του Off ξεμπλοκάρει..

Το αρχείο είναι αρκετά μεγάλο, κάπου 27GB, αλλά δεν έχει πρόβλημα αυτό καθεαυτό, αφού στο PC παίζει κανονικά. Ούτε το Home Cinema έχει πρόβλημα, έχουμε δει πάλι ταινία 1080p από τον ίδιο σκληρό, μέχρι 11-12GB. Μήπως η ταινία έχει πολύ υψηλό bitrate και δεν μπορεί να ακολουθήσει το hardware; Υπάρχει τίποτα που να μπορώ να κάνω για να παίξει κανονικά; Είτε στις home cinema, είτε στο αρχείο, ακόμα και με κάποιο re-encoding (με την μικρότερη δυνατή απώλεια ποιότητας).

Τα στοιχεία του βίντεο:
General
Unique ID : 215238643265271115101235007775851871151 (0xA1ED746F6FC190D5D53A8ACC1A6EFBAF)
Complete name : G:\__MOVIES__\1080p\DR1V31080PREMUX\Drive.2011.1080p.BluRay.DTSHD-MA.h264.Remux-decibeL.mkv
Format : Matroska
Format version : Version 2
File size : 26.8 GiB
Duration : 1h 40mn
Overall bit rate mode : Variable
Overall bit rate : 38.2 Mbps
Movie name : Drive.2011.1080p.BluRay.DTSHD-MA.h264.Remux-decibeL
Encoded date : UTC 2012-01-15 18:33:30
Writing application : mkvmerge v5.0.1 ('Es ist Sommer') built on Oct 13 2011 10:08:36
Writing library : libebml v1.2.2 + libmatroska v1.3.0

Video
ID : 1
Format : AVC
Format/Info : Advanced Video Codec
Format profile : [email protected]
Format settings, CABAC : Yes
Format settings, ReFrames : 4 frames
Codec ID : V_MPEG4/ISO/AVC
Duration : 1h 40mn
Bit rate mode : Variable
Bit rate : 35.9 Mbps
Maximum bit rate : 37.0 Mbps
Width : 1 920 pixels
Height : 1 080 pixels
Display aspect ratio : 16:9
Frame rate : 23.976 fps
Color space : YUV
Chroma subsampling : 4:2:0
Bit depth : 8 bits
Scan type : Progressive
Bits/(Pixel*Frame) : 0.722
Stream size : 25.2 GiB (94%)
Title : MPEG-4 AVC Video / 34999 kbps / 1080p / 23.976 fps / 16:9 / High Profile 4.1
Default : Yes
Forced : No

Audio
ID : 2
Format : DTS
Format/Info : Digital Theater Systems
Format profile : MA / Core
Codec ID : A_DTS
Duration : 1h 40mn
Bit rate mode : Variable
Bit rate : 1 561 Kbps / 1 510 Kbps
Channel(s) : 6 channels
Channel positions : Front: L C R, Side: L R, LFE
Sampling rate : 48.0 KHz
Bit depth : 24 bits
Compression mode : Lossless / Lossy
Title : DTS-HD Master Audio / English / 5.1 / 48 kHz / 3297 kbps / 24-bit
Language : English
Default : Yes
Forced : No

Text #1
ID : 3
Format : PGS
Codec ID : S_HDMV/PGS
Codec ID/Info : The same subtitle format used on BDs/HD-DVDs
Language : English
Default : Yes
Forced : No

Text #2
ID : 4
Format : PGS
Codec ID : S_HDMV/PGS
Codec ID/Info : The same subtitle format used on BDs/HD-DVDs
Title : SDH
Language : English
Default : No
Forced : No

Text #3
ID : 5
Format : PGS
Codec ID : S_HDMV/PGS
Codec ID/Info : The same subtitle format used on BDs/HD-DVDs
Language : Spanish
Default : No
Forced : No

Menu
00:00:00.000 : en:Chapter 01
00:10:32.715 : en:Chapter 02
00:15:02.443 : en:Chapter 03
00:19:55.111 : en:Chapter 04
00:23:23.444 : en:Chapter 05
00:30:40.338 : en:Chapter 06
00:35:07.439 : en:Chapter 07
00:39:23.444 : en:Chapter 08
00:45:41.155 : en:Chapter 09
00:50:42.581 : en:Chapter 10
00:55:47.427 : en:Chapter 11
01:02:27.744 : en:Chapter 12
01:07:39.722 : en:Chapter 13
01:13:22.481 : en:Chapter 14
01:18:30.456 : en:Chapter 15
01:28:53.578 : en:Chapter 16
 

Pleo

AVClub Fanatic
14 March 2008
15,318
Αθήνα
Τη διάσωση του στρατιώτη Ράιαν σε flawless πήγατε να δείτε; :afro:

Τα ενσωματωμένα player σε μηχανήματα το έχουν αυτό. Στην τηλεόρασή μου LG 42LH5000 με σκληρό δίσκο σε docking station δεν μπορείς να πας παρακάτω από ένα δύο κεφάλαια στην ταινία. Κολλάει και γυρνάει στο μενού. Με στικάκι ή σκληρό κατ' ευθείαν δεν έχει τέτοια θέματα. Μάλλον τα βρίσκει δύσκολα σε αυτά που πάει να τραβήξει από το σκληρό γενικώς.
 

manosfp

AVClub Addicted Member
30 July 2008
1,535
Άσχετο. Με ποιο προγράμματα παίρνεις όλες αυτές τις πληροφορίες;
 

#@[email protected]#

AVClub Addicted Member
1 April 2010
1,674
Άσχετο. Με ποιο προγράμματα παίρνεις όλες αυτές τις πληροφορίες;
Ακόμη, στο MPC αλλά και στο KMplayer, με δεξί κλικ, βρίσκεις την παράμετρο info και τα βλεπεις, ή τα αντιγράφεις όπως ο φίλος πιο πάνω. αν τα χρησιμοποιείς βέβαια. :)
 

sadako

New member
9 June 2009
55
Από το Media Player Classic - Home Cinema τις πήρα τις πληροφορίες..

Πάω χτες, βλέπουμε ΑΛΛΗ ταινία (το 'Drive' που μου είχε δημιουργήσει το πρόβλημα το'χα σβήσει από τον εξωτερικό γιατί είχε τιγκάρει), πάλι DTS-MA, και παίζει κανονικά. Μόνο σε κάποια στιγμή πήγε να σκαλώσει, αλλά σε 3 δευτερόλεπτα συνέχισε κανονικά.

Το info:
General
Unique ID : 201912822869216315025132283160359776188 (0x97E6FEC396E5538DB3D8FD7286A6AFBC)
Complete name : H:\__MOVIES__\__HD MOVIES__\__HD with DVD Subs__\Real Steel 2011 BluRay Rmx AVC DTSMA 7.1.mkv
Format : Matroska
Format version : Version 2
File size : 22.1 GiB
Duration : 2h 6mn
Overall bit rate mode : Variable
Overall bit rate : 25.0 Mbps
Encoded date : UTC 2012-01-08 10:53:41
Writing application : mkvmerge v5.2.1 ('A Far Off Place') built on Jan 2 2012 23:21:10
Writing library : libebml v1.2.3 + libmatroska v1.3.0

Video
ID : 1
Format : AVC
Format/Info : Advanced Video Codec
Format profile : [email protected]
Format settings, CABAC : Yes
Format settings, ReFrames : 4 frames
Muxing mode : Header stripping
Codec ID : V_MPEG4/ISO/AVC
Duration : 2h 6mn
Bit rate mode : Variable
Bit rate : 22.9 Mbps
Maximum bit rate : 37.0 Mbps
Width : 1 920 pixels
Height : 1 080 pixels
Display aspect ratio : 16:9
Frame rate : 23.976 fps
Color space : YUV
Chroma subsampling : 4:2:0
Bit depth : 8 bits
Scan type : Progressive
Bits/(Pixel*Frame) : 0.461
Stream size : 20.3 GiB (92%)
Language : English
Default : Yes
Forced : No

Audio
ID : 2
Format : DTS
Format/Info : Digital Theater Systems
Format profile : MA / Core
Muxing mode : Header stripping
Codec ID : A_DTS
Duration : 2h 6mn
Bit rate mode : Variable
Bit rate : 1 597 Kbps / 1 510 Kbps
Channel(s) : 8 channels / 6 channels
Channel positions : Front: L C R, Side: L R, Back: L R, LFE / Front: L C R, Side: L R, LFE
Sampling rate : 48.0 KHz
Bit depth : 16 bits
Compression mode : Lossless / Lossy
Language : English
Default : Yes
Forced : No

Text
ID : 3
Format : PGS
Muxing mode : zlib
Codec ID : S_HDMV/PGS
Codec ID/Info : The same subtitle format used on BDs/HD-DVDs
Language : English
Default : Yes
Forced : No

Menu
00:00:00.000 : en:00:00:00.000
00:03:00.472 : en:00:03:00.472
00:10:38.304 : en:00:10:38.304
00:18:50.546 : en:00:18:50.546
00:24:29.885 : en:00:24:29.885
00:34:14.761 : en:00:34:14.761
00:41:22.355 : en:00:41:22.355
00:48:46.131 : en:00:48:46.131
00:52:08.709 : en:00:52:08.709
00:57:15.015 : en:00:57:15.015
01:05:01.231 : en:01:05:01.231
01:12:33.974 : en:01:12:33.974
01:18:26.994 : en:01:18:26.994
01:26:28.517 : en:01:26:28.517
01:32:50.773 : en:01:32:50.773
01:39:19.704 : en:01:39:19.704
01:48:22.663 : en:01:48:22.663
01:52:26.865 : en:01:52:26.865
01:57:21.868 : en:01:57:21.868
02:00:50.326 : en:02:00:50.326

Επίσης η άλλη διαφορά είναι ότι αυτό το είδαμε από portable usb-powered σκληρό (ενώ το άλλο τό'χαμε δει από external case με εξωτερική τροφοδοσία).. Αλλά εγώ αυτό το θεωρούσα περισσότερο ριψοκίνδυνο (συγκριτικά με τον άλλον external), γιατί αυτός τραβάει ΚΑΙ το ρεύμα από το Home Cinema..


Επίσης, δοκίμασα και 2 sample files (από άλλο USB stick), έπαιξαν κανονικά..

1)
General
ID : 0 (0x0)
Complete name : C:\Users\*******\Downloads\Compressed\hd_dts_animated_logo_lossless.m2ts
Format : BDAV
Format/Info : Blu-ray Video
File size : 93.2 MiB
Duration : 22s 50ms
Overall bit rate mode : Variable
Overall bit rate : 35.5 Mbps
Maximum Overall bit rate : 48.0 Mbps

Video
ID : 4113 (0x1011)
Menu ID : 1 (0x1)
Format : AVC
Format/Info : Advanced Video Codec
Format profile : [email protected]
Format settings, CABAC : Yes
Format settings, ReFrames : 4 frames
Codec ID : 27
Duration : 21s 355ms
Bit rate mode : Variable
Bit rate : 32.4 Mbps
Maximum bit rate : 37.0 Mbps
Width : 1 920 pixels
Height : 1 080 pixels
Display aspect ratio : 16:9
Frame rate : 23.976 fps
Color space : YUV
Chroma subsampling : 4:2:0
Bit depth : 8 bits
Scan type : Progressive
Bits/(Pixel*Frame) : 0.653
Stream size : 82.6 MiB (89%)

Audio
ID : 4352 (0x1100)
Menu ID : 1 (0x1)
Format : DTS
Format/Info : Digital Theater Systems
Format profile : MA / Core
Muxing mode : Stream extension
Codec ID : 134
Duration : 21s 344ms
Bit rate mode : Variable
Bit rate : 1 597 Kbps / 1 510 Kbps
Channel(s) : 8 channels / 6 channels
Channel positions : Front: L C R, Side: L R, Back: L R, LFE / Front: L C R, Side: L R, LFE
Sampling rate : 48.0 KHz
Bit depth : 24 bits
Compression mode : Lossless / Lossy


2)
General
ID : 0 (0x0)
Complete name : C:\Users\******\Downloads\Compressed\hd_dts_total_immersion_lossless.m2ts
Format : BDAV
Format/Info : Blu-ray Video
File size : 211 MiB
Duration : 47s 700ms
Overall bit rate mode : Variable
Overall bit rate : 37.2 Mbps
Maximum Overall bit rate : 48.0 Mbps

Video
ID : 4113 (0x1011)
Menu ID : 1 (0x1)
Format : AVC
Format/Info : Advanced Video Codec
Format profile : [email protected]
Format settings, CABAC : Yes
Format settings, ReFrames : 4 frames
Codec ID : 27
Duration : 47s 47ms
Bit rate mode : Variable
Bit rate : 34.1 Mbps
Maximum bit rate : 37.0 Mbps
Width : 1 920 pixels
Height : 1 080 pixels
Display aspect ratio : 16:9
Frame rate : 29.970 fps
Color space : YUV
Chroma subsampling : 4:2:0
Bit depth : 8 bits
Scan type : MBAFF
Bits/(Pixel*Frame) : 0.549
Stream size : 191 MiB (90%)
Color primaries : BT.709-5, BT.1361, IEC 61966-2-4, SMPTE RP177
Transfer characteristics : BT.709-5, BT.1361
Matrix coefficients : BT.709-5, BT.1361, IEC 61966-2-4 709, SMPTE RP177

Audio
ID : 4352 (0x1100)
Menu ID : 1 (0x1)
Format : DTS
Format/Info : Digital Theater Systems
Format profile : MA / Core
Muxing mode : Stream extension
Codec ID : 134
Duration : 47s 40ms
Bit rate mode : Variable
Bit rate : 1 597 Kbps / 1 510 Kbps
Channel(s) : 8 channels / 6 channels
Channel positions : Front: L C R, Side: L R, Back: L R, LFE / Front: L C R, Side: L R, LFE
Sampling rate : 48.0 KHz
Bit depth : 24 bits
Compression mode : Lossless / Lossy

Text
ID : 4608 (0x1200)
Menu ID : 1 (0x1)
Format : PGS
Codec ID : 144
Delay relative to video : 100ms

Βγάζει κανείς κανένα συμπέρασμα;
Το Real Steel έχει χαμηλότερο overall bitrate από το Drive, αλλά τα 2 samples files έχουν το ίδιο υψηλό..

Βασικά, μήπως ξέρει κανείς τι παίζει με τα Home Cinema και τους external usb-powered σκληρούς; Γιατί πήρε κάπου το μάτι μου (από αναξιόπιστη πηγή είναι η αλήθεια), ότι δεν προτιμούνται για χρήση σε τέτοιες περιπτώσεις, γιατί τραβώντας ρεύμα από την συσκευή, υπάρχει η περίπτωση να το κάψει..
 

Kostas_Y

AVClub Fanatic
24 December 2009
13,391
North by Northeast
Αχ αυτή η "αναξιόπιστη πηγή", στα ψυχοφάρμακα θα μας ρίξει ;)

Έχοντας αποκλείσει πρόβλημα με το υψηλό bitrate και τον ήχο DTS-MA, ειναι πιθανόν το αρχείο που δεν έπαιζε να είχε κάποιο προβληματάκι το οποίο ο Η/Υ μπορεί να το ξεπεράσει εύκολα αλλα το LG σηκώνει τα χέρια ψηλά.
 

sadako

New member
9 June 2009
55
Χαχαχαχα... Και είδα το ίδιο avatar, δεν ήμουν σιγουρος όμως ότι είσαι ο ίδιος.. (εντάξει, στο signature δεν έδωσα σημασία πριν)..

Δηλαδή δεν ισχύει, ε; Δεν φτάνει που λέει βλακείες, τις λέει και με στόμφο.. Μάαααλιστα..

Θα δοκιμάσω την επόμενη φορά να τρέξω εκείνο το αρχείο από τον portable σκληρό..
 

sadako

New member
9 June 2009
55
Όταν λες να το 'περάσω από το MKVMerge', εννοείς να το προσθέσω απλά και να το σώσω πάλι χωρίς να αλλάξω τίποτα;

Ή έχει κάποιο tool για error checking;
 

Kostas_Y

AVClub Fanatic
24 December 2009
13,391
North by Northeast
Ναι, ένα απλό πέρασμα, με το header compression απενεργοποιημένο βέβαια.
Μου έχει τύχει να μην παίζουν ματρόσκες και να τις διορθώνει με ένα απλό remux.
 

sadako

New member
9 June 2009
55
Αυτό το κάνω ούτως ή άλλως.. Από πιο πριν, όταν έπαιζα τις ταινίες στο USB του αποκωδικοποιητή, όταν ήθελα να αλλάξω κάτι (να βγάλω κανένα subtitle stream ή κάτι τέτοιο), και το έσωζα κανονικά, μετά δεν το έβλεπε. Και κάποιος μου είχε πει να πηγαίνω στα extra options και σε κάθε stream να βάζω 'none' στο compression..

Αυτό για το mkvmerge v4.6.0

Έχω την εντύπωση πως είχα κατεβάσει και νεότερη έκδοση, αλλά μου έκανε κάτι χαζά.. Δεν θυμάμαι ακριβώς τι...