MPEG2 με format profile 4:2:[email protected] ;

Kostas_Y

AVClub Fanatic
24 December 2009
13,473
North by Northeast
Βρήκα ένα αρχείο .TS με τα παρακάτω χαρακτηριστικά:

Video
ID : 4113 (0x1011)
Menu ID : 1 (0x1)
Format : MPEG Video
Format version : Version 2
Format profile : 4:2:[email protected]
Format settings, BVOP : No
Format settings, Matrix : Default
Codec ID : 2
Duration : 56mn 23s
Bit rate mode : Variable
Bit rate : 39.8 Mbps
Width : 1 920 pixels
Height : 1 080 pixels
Display aspect ratio : 16:9
Frame rate : 25.000 fps
Standard : PAL
Color space : YUV
Chroma subsampling : 4:2:2
Bit depth : 8 bits
Scan type : Interlaced
Scan order : Top Field First
Compression mode : Lossy
Bits/(Pixel*Frame) : 0.768
Stream size : 15.3 GiB (94%)

Το βίντεο αυτό λοιπόν δεν παίζει στα XBMC, WMP και PotPlayer. Παίζει στα VLC και MPC-HC αλλα με πολύ μειωμένο framerate, γύρω στα 10fps.

Το αρχείο ήρθε με την οδηγία "Requires a software MPEG-2 decoder capable of handling professional 4:2:2 video, such as Elecard/MainConcept, Etymonix or VLC.". Το VLC δεν παίζει και πολύ καλά οπότε ψάχνω για decoder που να μην πνίγεται με το 4:2:[email protected]

Ιδέες;
 

Kostas_Y

AVClub Fanatic
24 December 2009
13,473
North by Northeast
Προσπαθώ να κόψω ένα δείγμα απο το εν λόγω αρχείο. Δοκίμασα το tsMuxer αλλά δεν το κόβει, με οποιαδήποτε επιλογή δοκίμασα. Κατέβασα και το TSSniper αλλα είναι το πιο δύσχρηστο πρόγραμμα που έχω δει...
 
19 June 2006
35,674
Κώστα, με τον ''μαγικό'' VLC, νερό το βιντεάκι!!! Το μόνο είναι ότι δεν δείχνει τη διάρκεια αλλά μου βγάζει 00:00

WMP= Μόνο ήχος όχι εικόνα

MPC, POT = Δεν ξεκινάνε καν

TMT = Κράσσαρε


Πάω να δω τις πληροφορίες από τον VLC μπας και βγάλω άκρη...-bye-
 

Kostas_Y

AVClub Fanatic
24 December 2009
13,473
North by Northeast
Το πρόβλημα με τη διάρκεια μάλλον οφείλεται στο κόψιμο.

Ένα update απο τη μεριά μου:
Με το VLC παίζει αλλά όταν ανοίγω το yadiff deinterlacing, παγώνει η εικόνα

Στο MPC-HC με MadVR έπαιξε μεν αλλα αν προσπαθήσω να πάω μπρος ή πίσω στο αρχείο χάνει το συγχρονισμό του. Για deinterlacing, ουτε κουβέντα, δεν το σηκώνει ο Η/Υ.

Anyway, ευχαριστώ για την προσπάθεια.
 
19 June 2006
35,674
Update:

Ο mpc παίζει μετά από κάποια δευτερόλεπτα αλλά μόνο ήχο σαν τον wmp. Ο Pot δεν ξεκινάει καν, ενώ ο ΤΜΤ κρασσάρει αμέσως. Ωστόσο, από τον POT παίρνουμε τις εξής πληροφορίες από το αρχείο:

E:\4-2-2_Sample.ts
General #16
ID : 16 (0x10)
Complete name : E:\4-2-2_Sample.ts
Format : MPEG-TS
File size : 249 MiB
Duration : 50s 496ms
Overall bit rate mode : Variable
Overall bit rate : 41.2 Mbps
Video #4113
ID : 4113 (0x1011)
Menu ID : 1 (0x1)
Format : MPEG Video
Format version : Version 2
Format profile : 4:2:[email protected]
Format settings, BVOP : No
Format settings, Matrix : Custom
Codec ID : 2
Duration : 50s 640ms
Bit rate mode : Variable
Bit rate : 38.8 Mbps
Maximum bit rate : 39.8 Mbps
Width : 1 920 pixels
Height : 1 080 pixels
Display aspect ratio : 16:9
Frame rate : 25.000 fps
Standard : PAL
Color space : YUV
Chroma subsampling : 4:2:2
Bit depth : 8 bits
Scan type : Interlaced
Scan order : Top Field First
Compression mode : Lossy
Bits/(Pixel*Frame) : 0.748
Stream size : 234 MiB (94%)
Audio #4352
ID : 4352 (0x1100)
Menu ID : 1 (0x1)
Format : MPEG Audio
Format version : Version 1
Format profile : Layer 2
Codec ID : 4
Duration : 50s 640ms
Bit rate mode : Constant
Bit rate : 384 Kbps
Channel(s) : 2 channels
Sampling rate : 48.0 KHz
Compression mode : Lossy
Stream size : 2.32 MiB (1%)
Language : Italian
Language, more info : Clean effects




[Used Filter List]
(1) LAV Splitter Source
(2) Video Codec/Transform
(3) ffdshow raw video filter
(4) Madshi Video Renderer
(5) LAV Audio Decoder
(6) Audio Codec/Transform
(7) Default DirectSound Device

[Video Information]
Video Codec:MPG2 - FFmpeg Decoder
Input type:MPG2(16 bits)
Input size:1920 x 1080(1.78:1)
Output type:YV12(12 bits)
Output Size:1920 x 1080(1.78:1)
Frame Rate:25.00
BitRate: Unknown

[Audio Information]
Audio Codec:MPEG Audio(0x50)
Sample rate:48000 ->48000 samples / sec
Bit rate:16 ->16 bits / sample
Channels:2 ->6 channels
Bitrate: 384 kbps
 

Kostas_Y

AVClub Fanatic
24 December 2009
13,473
North by Northeast
Το ίδιο που έγραφε και το Mediainfo, πάνω-κάτω. Αν όμως μπορεί να το παίξει το VLC, γιατί δεν παίζει στο XBMC; Αν δεν κάνω λάθος, και τα δύο βασίζονται στο ffmpeg και δε νομίζω να έχουν τόσες διαφορές στην υλοποίηση, στο κομμάτι του Mpeg2 τουλάχιστον.
 

Kostas_Y

AVClub Fanatic
24 December 2009
13,473
North by Northeast
Φυσικό είναι να παίζει ο ήχος σε όλα σχεδόν, ΜΡΑ 2.0 είναι. (αυτό να το βλέπουν όσοι κράζουν την EPTHD για τον ήχο της :p)
 
19 June 2006
35,674
Απάντηση: Re: MPEG2 με format profile 4:2:[email protected] ;

Φυσικό είναι να παίζει ο ήχος σε όλα σχεδόν, ΜΡΑ 2.0 είναι. (αυτό να το βλέπουν όσοι κράζουν την EPTHD για τον ήχο της :p)


Βρε Κώστα, μήπως χορηγός της εκδήλωσης ήταν η VideoLAN και το έφτιαξε έτσι για να παίζει μόνο στoν VLC???:Banane0::Banane0:
 

Kostas_Y

AVClub Fanatic
24 December 2009
13,473
North by Northeast
Μήπως δεν κάνει καλές παρέες; ;)

Ο δικός μου ειναι απο το SVP 3.0.5, δεν τον έχω πειράξει μετα την εγκατάσταση του πακέτου.
 

sotos65

AVClub Fanatic
25 August 2007
10,625
Χανιά
Εκτός από το VLC, που παίζει χωρίς πρόβλημα, αναπαραγωγή από το DVBViewer Pro με χρήση του mainconcept video decoder (broadcasting). Ανάλογα θα πρέπει να παίζει και σε άλλους αντίστοιχους player...

venice2.jpg

venice.jpg
 

Kostas_Y

AVClub Fanatic
24 December 2009
13,473
North by Northeast
Σώτο, βλέπω ψωνίζουμε από το ίδιο μαγαζί. :a0210:

Αυτό έγραφε και στις οδηγίες αναπαραγωγής: οτι θέλει επαγγελματικό (και ουχί δωρεάν) decoder.