Ποιότητα εικόνας στο πακέτο της Cosmote

  • Αγαπητοί φίλοι

    Με ιδιαίτερη χαρά σας προσκαλούμε στην κοπή της πρωτοχρονιάτικης πίτας του AVClub για το 2024

    Την Κυριακή, 3/3/2024 και ώρα 14:00 στο εστιατόριο  "Το Ψαρονέφρι" θα πραγματοποιήσουμε την κοπή της Πρωτοχρονιάτικης πίτας μας για το 2024.

    Το εστιατόριο βρίσκεται στο Μαρούσι, Πέλικα 64, Τηλ.: 210 2824531

    Δηλώστε τη συμμετοχή σας εδώ, θα χαρούμε πολύ να σας δούμε από κοντά.

Μόνο για ποδοσφαίρο το έχω βασικά. Δεν βλέπω κάτι τέτοιο που λες. Δεν είναι τέλεια αλλά σε σχέση με eon που επίσης έχω είναι μια χαρά. Έχω nvidia shield tv pro συνδεμένο πάνω σε sony tv 50''.Τέλειο είναι μόνο το 4k κανάλι τους στα αθλητικά.

Στάλθηκε από το SM-S918B μου χρησιμοποιώντας Tapatalk
Και εγω για αγωνεϛ το εχω οπωϛ και την ΕΟΝ. Προσωπικα καποιεϛ φορεϛ παρατηρω σε δορυφορικο cosmote να υπαρχει θολουρα κυριωϛ στιϛ ακρεϛ τηϛ οθονηϛ και καπωϛ σκοτεινα πλανα. Στο διαδικτυακο σε αλλη τηλεοραση εχει ελαφρωϛ καλυτερη εικονα. Στην ΕΟΝ η κατασταση αναστρεφεται με το δορυφορικο να υπερτερει του δικτυακου. Παντωϛ σε καμια περιπτωση, απο τη δικη μου εμπειρια, η εικονα δεν ειναι αθλια. Τα δορυφορικα ειναι καρφωμενα σε μια απλη lcd lg και τα apps σε TCL C635, δεν διαθετω δηλαδη καποιο ιδιαιτερα ακριβο εξοπλισμο.
 

Joker19

AVClub Addicted Member
2 August 2020
1,374
Και εγω για αγωνεϛ το εχω οπωϛ και την ΕΟΝ. Προσωπικα καποιεϛ φορεϛ παρατηρω σε δορυφορικο cosmote να υπαρχει θολουρα κυριωϛ στιϛ ακρεϛ τηϛ οθονηϛ και καπωϛ σκοτεινα πλανα. Στο διαδικτυακο σε αλλη τηλεοραση εχει ελαφρωϛ καλυτερη εικονα. Στην ΕΟΝ η κατασταση αναστρεφεται με το δορυφορικο να υπερτερει του δικτυακου. Παντωϛ σε καμια περιπτωση, απο τη δικη μου εμπειρια, η εικονα δεν ειναι αθλια. Τα δορυφορικα ειναι καρφωμενα σε μια απλη lcd lg και τα apps σε TCL C635, δεν διαθετω δηλαδη καποιο ιδιαιτερα ακριβο εξοπλισμο.
Τα apps βάλτα σε box στην ίδια τηλεόραση που έχεις. Μέσω της συγκεκριμένης TCL δεν βλέπονται. Πάρε ή το Google tv Chromecast το λευκό ή Mecool KM2 plus. Θα αναβαθμιστεί η εικόνα 300%.
 

nkats

New member
17 May 2019
59
Τα apps βάλτα σε box στην ίδια τηλεόραση που έχεις. Μέσω της συγκεκριμένης TCL δεν βλέπονται. Πάρε ή το Google tv Chromecast το λευκό ή Mecool KM2 plus. Θα αναβαθμιστεί η εικόνα 300%.
Εγω εχω την TCL C645 , για το app της ΕΟΝ συμφωνω, ειναι χαλια, δεν εχει ομαλη κινηση. Το app της cosmote tv ομως εχει πολυ καλη εικόνα.
 
Εγω εχω την TCL C645 , για το app της ΕΟΝ συμφωνω, ειναι χαλια, δεν εχει ομαλη κινηση. Το app της cosmote tv ομως εχει πολυ καλη εικόνα.
Καλημερα και χρονια πολλα! Στη δικια μου c635 παντωϛ η εικονα και στα δυο ειναι παραπλησια με ελαφρωϛ καλυτερη την cosmote. Η ΕΟΝ δεν μου παρουσιαζει προβληματα στην κινηση και βεβαιωϛ δεν ειναι χαλια. Και αυτο σε 50αρα γραμμη και συνδεση ethernet.
 

Vasilis22

New member
21 October 2021
32
Αγορασα προσφατα τη Samsung 65QN85C και η ποιοτητα του δορυφορικου Cosmote μου φαινεται μετρια προς κακη. Υπάρχει θολουρα στα προσωπα των παικτων και γενικα η ροη δε μου φαινετα και πολυ ομαλη. Η ποιοτητα της εφαρμογης δειχνει αρκατα καλυτερα.

Υπάρχει καποιος τροπος να φτιάξει η εικόνα στο δορυφορικο? Μηπως παιζει ρολο και η ρυθμισης της τηλεορασης? Η θύρα hdmi ειναι 120 Ηz, δε θα έπρεπε να ειναι καλύτερη η εικονα ? Χρησιμοποιω το hdmi που ειχε μεσα ο εξοπλισμος, αλλα και με αλλο καλωδιο που δοκιμασα το αποτελεσμα ηταν το ιδιο κακο.
 
Αγορασα προσφατα τη Samsung 65QN85C και η ποιοτητα του δορυφορικου Cosmote μου φαινεται μετρια προς κακη. Υπάρχει θολουρα στα προσωπα των παικτων και γενικα η ροη δε μου φαινετα και πολυ ομαλη. Η ποιοτητα της εφαρμογης δειχνει αρκατα καλυτερα.

Υπάρχει καποιος τροπος να φτιάξει η εικόνα στο δορυφορικο? Μηπως παιζει ρολο και η ρυθμισης της τηλεορασης? Η θύρα hdmi ειναι 120 Ηz, δε θα έπρεπε να ειναι καλύτερη η εικονα ? Χρησιμοποιω το hdmi που ειχε μεσα ο εξοπλισμος, αλλα και με αλλο καλωδιο που δοκιμασα το αποτελεσμα ηταν το ιδιο κακο.
Και σε εμενα σε απλη led lg τα ιδια κανει σε καποιουϛ αγωνεϛ, ευτυχωϛ λιγουϛ, το δορυφορικο. Παλιοτερα το προβλημα ηταν μεεγαλυτερο. Βεβαια και με την android εφαρμογη σε tcl τηλεοραση δεν αλλαζει κατι δραματικα προϛ το καλυτερο. Σε γενικεϛ γραμμεϛ λοιπον δεν ειναι χαλια απλα δεν ειναι και αψογη η εμπειρια.
 

cinephile

Established Member
7 November 2023
180
Αγορασα προσφατα τη Samsung 65QN85C και η ποιοτητα του δορυφορικου Cosmote μου φαινεται μετρια προς κακη. Υπάρχει θολουρα στα προσωπα των παικτων και γενικα η ροη δε μου φαινετα και πολυ ομαλη. Η ποιοτητα της εφαρμογης δειχνει αρκατα καλυτερα.

Υπάρχει καποιος τροπος να φτιάξει η εικόνα στο δορυφορικο? Μηπως παιζει ρολο και η ρυθμισης της τηλεορασης? Η θύρα hdmi ειναι 120 Ηz, δε θα έπρεπε να ειναι καλύτερη η εικονα ? Χρησιμοποιω το hdmi που ειχε μεσα ο εξοπλισμος, αλλα και με αλλο καλωδιο που δοκιμασα το αποτελεσμα ηταν το ιδιο κακο.
Για το εργαλειο που εχεις θελεις καλο σημα να ταισεις την tv σου.Βαλε ενα netflix 4k και απολαυσε την.Αλλιως συμβιβαζεσαι με λιγο θολουρα λιγο θορυβο και ολα τα λιγο...
 
Για το εργαλειο που εχεις θελεις καλο σημα να ταισεις την tv σου.Βαλε ενα netflix 4k και απολαυσε την.Αλλιως συμβιβαζεσαι με λιγο θολουρα λιγο θορυβο και ολα τα λιγο...
Δε νομιζω το νετφλιξ να δειχνει αγωνεϛ ποδοσφαιρου για τουϛ οποιουϛ μιλαγαμε...
 
  • Like
Reactions: ΓΡΥΠΑΣ

Vasilis22

New member
21 October 2021
32
Για το εργαλειο που εχεις θελεις καλο σημα να ταισεις την tv σου.Βαλε ενα netflix 4k και απολαυσε την.Αλλιως συμβιβαζεσαι με λιγο θολουρα λιγο θορυβο και ολα τα λιγο...
Το νετφλιξ ειναι οκ, απορω με τη ποιοτητα της κοσμοτε στο δορυφορικο. Σε μια παλιοτερη κ λιγο μικροτερη Samsung που ειχα (55'' του 18) παιζει παρομοια για να μη πω καλυτερα.
 

Joker19

AVClub Addicted Member
2 August 2020
1,374
Αγορασα προσφατα τη Samsung 65QN85C και η ποιοτητα του δορυφορικου Cosmote μου φαινεται μετρια προς κακη. Υπάρχει θολουρα στα προσωπα των παικτων και γενικα η ροη δε μου φαινετα και πολυ ομαλη. Η ποιοτητα της εφαρμογης δειχνει αρκατα καλυτερα.

Υπάρχει καποιος τροπος να φτιάξει η εικόνα στο δορυφορικο? Μηπως παιζει ρολο και η ρυθμισης της τηλεορασης? Η θύρα hdmi ειναι 120 Ηz, δε θα έπρεπε να ειναι καλύτερη η εικονα ? Χρησιμοποιω το hdmi που ειχε μεσα ο εξοπλισμος, αλλα και με αλλο καλωδιο που δοκιμασα το αποτελεσμα ηταν το ιδιο κακο.
Ότι τηλεόραση και να έχεις, μόνο με ένα σχετικά καλό tv box θα τα δεις όλα όπως πρέπει....και μια λεπτομέρεια....η Cosmote και η ΕΟΝ παίζουν σε 1080p50 οπότε στις συγκεκριμένες περιπτώσεις τα 120 είναι άχρηστα.....μόνο για Netflix, Amazon, gaming κλπ κάνουν......
 

Vasilis22

New member
21 October 2021
32
Ότι τηλεόραση και να έχεις, μόνο με ένα σχετικά καλό tv box θα τα δεις όλα όπως πρέπει....και μια λεπτομέρεια....η Cosmote και η ΕΟΝ παίζουν σε 1080p50 οπότε στις συγκεκριμένες περιπτώσεις τα 120 είναι άχρηστα.....μόνο για Netflix, Amazon, gaming κλπ κάνουν......
Το google chromecast το λευκο που το εχουν προτεινει πολλα παιδια εδω μεσα ειναι ενα τετοιο box;
 

pepis

AVClub Addicted Member
11 December 2010
1,454
Σήμερα, ανέβηκαν στο netflix, δύο σεζόν του yellowstone καθώς και οι σειρές Σέρρες και Σώσε με του ant1 plus, όλες σε 4k. Χαίρεσαι να τις βλέπεις. Αυτό είναι το πρόβλημα των ελληνικών πακέτων. Στο cosmote tv, το yellowstone είναι δεν είναι 1080 και οι άλλες δύο του ant1 plus σε χάλια definition.
 

Hacker?pcs

Senior Member
22 August 2010
520
Το ίδιο ισχύει με το Fargo Season 5 που βλέπω, καμία σχέση το 1080 της Cosmote με Hulu/Amazon που το βλέπω σε 4K και δεν καταλαβαίνω γιατί, η Cosmote έχει 4K/5.1 ήχο στο Έτερος Εγώ άρα δεν είναι τεχνικό θέμα ότι δεν έχει δυνατότητα
 

cinephile

Established Member
7 November 2023
180
Μια επισημανση θελω να κανω για τους φιλους της ποιοτητας του τι βλεπουμε και ακουμε!Τελευταια τα ote cinema 1 -2εχουν ηχο dolby digital plus με πολυ καλο bitrate.Αυτο ισχυει για το live προγραμμα.Στο on demand δυστυχως παραμενει απλο d.d.Ο ηχος στις ταινιες ειναι ισοδυναμος με ατμος!Ειναι πραγματικα καλος για streaming παντα μιλαμε.Ειδα σε αpple tv atmos ταινια του tom κρουζ και την συγκρινα αποψε με τη πρεμιερα που το εχει το cinema 1 και μπορω να πω οτι ισως ειναι και καλυτερο απο το ατμος της apple tv.Μπραβο cosmote!Αν καποιος ειχε καποιο εξοπλισμο να μας ελεγε και το bitrate του ηχου θα ηταν καλο.Στο apple tσε ατμος η ταινια ηταν 768 kbs και αποψε πραγματικα ο ηχος τα εσπαγε!!Ισως και καλυτερος.Για δεστε το.Καλη αναβαθμιση ηχου.Περιμενουκε και το 4k...στην εικονα.
 

Hacker?pcs

Senior Member
22 August 2010
520
384kbps DDP είναι στο live cinema 1, 384kbps DD απλό στο on demand, 640kbps DDP το αμερικανικό Hulu, 768 Atmos το Apple TV Plus. Αναλυτικά MediaInfo των αρχείων:

Cosmote Cinema 1 Live 1080 εικόνα / Dolby Digital Plus ήχος - 9 Φεβρουαριου 2024 22:45 "Mile 22"

Code:
General
Complete name                            : mile22 feb9.mkv
Format                                   : Matroska
Format version                           : Version 4
File size                                : 2.50 GiB
Duration                                 : 1 h 35 min
Overall bit rate mode                    : Variable
Overall bit rate                         : 3 774 kb/s
Frame rate                               : 25.000 FPS

Video
ID                                       : 1
Format                                   : AVC
Format/Info                              : Advanced Video Codec
Format profile                           : [email protected]
Format settings                          : CABAC / 4 Ref Frames
Format settings, CABAC                   : Yes
Format settings, Reference frames        : 4 frames
Format settings, GOP                     : M=4, N=25
Codec ID                                 : V_MPEG4/ISO/AVC
Duration                                 : 1 h 35 min
Bit rate mode                            : Variable
Bit rate                                 : 3 388 kb/s
Maximum bit rate                         : 5 500 kb/s
Width                                    : 1 920 pixels
Height                                   : 1 080 pixels
Display aspect ratio                     : 16:9
Active Format Description                : Letterbox 16:9 image
Frame rate mode                          : Constant
Frame rate                               : 25.000 FPS
Standard                                 : Component
Color space                              : YUV
Chroma subsampling                       : 4:2:0
Bit depth                                : 8 bits
Scan type                                : Progressive
Bits/(Pixel*Frame)                       : 0.065
Stream size                              : 2.25 GiB (90%)
Default                                  : Yes
Forced                                   : No
Color range                              : Limited
Color primaries                          : BT.709
Transfer characteristics                 : BT.709
Matrix coefficients                      : BT.709

Audio
ID                                       : 2
Format                                   : E-AC-3
Format/Info                              : Enhanced AC-3
Commercial name                          : Dolby Digital Plus
Codec ID                                 : A_EAC3
Duration                                 : 1 h 35 min
Bit rate mode                            : Constant
Bit rate                                 : 384 kb/s
Channel(s)                               : 6 channels
Channel layout                           : L R C LFE Ls Rs
Sampling rate                            : 48.0 kHz
Frame rate                               : 31.250 FPS (1536 SPF)
Compression mode                         : Lossy
Stream size                              : 261 MiB (10%)
Language                                 : English
Service kind                             : Complete Main
Default                                  : Yes
Forced                                   : No

Cosmote On Demand 1080 εικόνα / Dolby Digital ήχος - Transformers 5

Code:
General
Complete name                            : transformers5.mkv
Format                                   : Matroska
Format version                           : Version 4
File size                                : 6.99 GiB
Duration                                 : 2 h 28 min
Overall bit rate mode                    : Constant
Overall bit rate                         : 6 753 kb/s
Frame rate                               : 25.000 FPS

Video
ID                                       : 1
Format                                   : AVC
Format/Info                              : Advanced Video Codec
Format profile                           : Main@L4
Format settings                          : CABAC / 4 Ref Frames
Format settings, CABAC                   : Yes
Format settings, Reference frames        : 4 frames
Codec ID                                 : V_MPEG4/ISO/AVC
Duration                                 : 2 h 28 min
Bit rate mode                            : Constant
Bit rate                                 : 6 500 kb/s
Width                                    : 1 920 pixels
Height                                   : 1 080 pixels
Display aspect ratio                     : 16:9
Frame rate mode                          : Constant
Frame rate                               : 25.000 FPS
Color space                              : YUV
Chroma subsampling                       : 4:2:0
Bit depth                                : 8 bits
Scan type                                : Progressive
Bits/(Pixel*Frame)                       : 0.125
Stream size                              : 6.59 GiB (94%)
Writing library                          : x264 core 155
Encoding settings                        : cabac=1 / ref=4 / deblock=1:0:0 / analyse=0x1:0x111 / me=hex / subme=7 / psy=1 / psy_rd=1.00:0.00 / mixed_ref=1 / me_range=16 / chroma_me=1 / trellis=1 / 8x8dct=0 / cqm=0 / deadzone=21,11 / fast_pskip=1 / chroma_qp_offset=-2 / threads=36 / lookahead_threads=6 / sliced_threads=0 / slices=1 / nr=0 / decimate=1 / interlaced=0 / bluray_compat=0 / stitchable=1 / constrained_intra=0 / bframes=4 / b_pyramid=0 / b_adapt=1 / b_bias=0 / direct=1 / weightb=1 / open_gop=0 / weightp=1 / keyint=48 / keyint_min=4 / scenecut=0 / intra_refresh=0 / rc_lookahead=40 / rc=cbr / mbtree=1 / bitrate=6500 / ratetol=1.0 / qcomp=0.60 / qpmin=0 / qpmax=69 / qpstep=4 / vbv_maxrate=6500 / vbv_bufsize=26000 / nal_hrd=cbr / filler=1 / ip_ratio=1.40 / aq=1:1.00
Language                                 : English
Default                                  : Yes
Forced                                   : No

Audio
ID                                       : 2
Format                                   : AC-3
Format/Info                              : Audio Coding 3
Commercial name                          : Dolby Digital
Codec ID                                 : A_AC3
Duration                                 : 2 h 28 min
Bit rate mode                            : Constant
Bit rate                                 : 384 kb/s
Channel(s)                               : 6 channels
Channel layout                           : L R C LFE Ls Rs
Sampling rate                            : 48.0 kHz
Frame rate                               : 31.250 FPS (1536 SPF)
Compression mode                         : Lossy
Stream size                              : 407 MiB (6%)
Language                                 : English
Service kind                             : Complete Main
Default                                  : Yes
Forced                                   : No

Cosmote On Demand 1080 εικόνα / Dolby Digital ήχος - Fargo S05E01

Code:
General
Complete name                            : fargo_s5e1_vod.mkv
Format                                   : Matroska
Format version                           : Version 4
File size                                : 2.42 GiB
Duration                                 : 53 min 50 s
Overall bit rate mode                    : Constant
Overall bit rate                         : 6 439 kb/s
Frame rate                               : 25.000 FPS

Video
ID                                       : 1
Format                                   : AVC
Format/Info                              : Advanced Video Codec
Format profile                           : Main@L4
Format settings                          : CABAC / 4 Ref Frames
Format settings, CABAC                   : Yes
Format settings, Reference frames        : 4 frames
Format settings, GOP                     : M=5, N=48
Codec ID                                 : V_MPEG4/ISO/AVC
Duration                                 : 53 min 50 s
Bit rate mode                            : Constant
Bit rate                                 : 6 053 kb/s
Nominal bit rate                         : 6 500 kb/s
Width                                    : 1 920 pixels
Height                                   : 1 080 pixels
Display aspect ratio                     : 16:9
Frame rate mode                          : Constant
Frame rate                               : 25.000 FPS
Color space                              : YUV
Chroma subsampling                       : 4:2:0
Bit depth                                : 8 bits
Scan type                                : Progressive
Bits/(Pixel*Frame)                       : 0.117
Stream size                              : 2.28 GiB (94%)
Writing library                          : x264 core 155
Encoding settings                        : cabac=1 / ref=4 / deblock=1:0:0 / analyse=0x1:0x111 / me=hex / subme=7 / psy=1 / psy_rd=1.00:0.00 / mixed_ref=1 / me_range=16 / chroma_me=1 / trellis=1 / 8x8dct=0 / cqm=0 / deadzone=21,11 / fast_pskip=1 / chroma_qp_offset=-2 / threads=36 / lookahead_threads=6 / sliced_threads=0 / slices=1 / nr=0 / decimate=1 / interlaced=0 / bluray_compat=0 / stitchable=1 / constrained_intra=0 / bframes=4 / b_pyramid=0 / b_adapt=1 / b_bias=0 / direct=1 / weightb=1 / open_gop=0 / weightp=1 / keyint=48 / keyint_min=4 / scenecut=0 / intra_refresh=0 / rc_lookahead=40 / rc=cbr / mbtree=1 / bitrate=6500 / ratetol=1.0 / qcomp=0.60 / qpmin=0 / qpmax=69 / qpstep=4 / vbv_maxrate=6500 / vbv_bufsize=26000 / nal_hrd=cbr / filler=1 / ip_ratio=1.40 / aq=1:1.00
Language                                 : English
Default                                  : Yes
Forced                                   : No

Audio
ID                                       : 2
Format                                   : AC-3
Format/Info                              : Audio Coding 3
Commercial name                          : Dolby Digital
Codec ID                                 : A_AC3
Duration                                 : 53 min 50 s
Bit rate mode                            : Constant
Bit rate                                 : 384 kb/s
Channel(s)                               : 6 channels
Channel layout                           : L R C LFE Ls Rs
Sampling rate                            : 48.0 kHz
Frame rate                               : 31.250 FPS (1536 SPF)
Compression mode                         : Lossy
Stream size                              : 148 MiB (6%)
Language                                 : English
Service kind                             : Complete Main
Default                                  : Yes
Forced                                   : No

Hulu 4K εικόνα/Dolby Digital Plus ήχος - Fargo S05E01

Code:
General
Complete name                            : Fargo.S05E01.mkv
Format                                   : Matroska
Format version                           : Version 4
File size                                : 6.18 GiB
Duration                                 : 57 min 28 s
Overall bit rate                         : 15.4 Mb/s
Frame rate                               : 23.976 FPS

Video
ID                                       : 1
Format                                   : HEVC
Format/Info                              : High Efficiency Video Coding
Format profile                           : Main [email protected]@Main
Codec ID                                 : V_MPEGH/ISO/HEVC
Duration                                 : 57 min 28 s
Bit rate                                 : 14.8 Mb/s
Width                                    : 3 840 pixels
Height                                   : 2 160 pixels
Display aspect ratio                     : 16:9
Frame rate mode                          : Constant
Frame rate                               : 23.976 (24000/1001) FPS
Color space                              : YUV
Chroma subsampling                       : 4:2:0
Bit depth                                : 10 bits
Bits/(Pixel*Frame)                       : 0.074
Stream size                              : 5.92 GiB (96%)
Default                                  : Yes
Forced                                   : No
Color range                              : Limited

Audio
ID                                       : 2
Format                                   : E-AC-3
Format/Info                              : Enhanced AC-3
Commercial name                          : Dolby Digital Plus
Codec ID                                 : A_EAC3
Duration                                 : 56 min 29 s
Bit rate mode                            : Constant
Bit rate                                 : 640 kb/s
Channel(s)                               : 6 channels
Channel layout                           : L R C LFE Ls Rs
Sampling rate                            : 48.0 kHz
Frame rate                               : 31.250 FPS (1536 SPF)
Compression mode                         : Lossy
Stream size                              : 259 MiB (4%)
Language                                 : English
Service kind                             : Complete Main
Default                                  : Yes
Forced                                   : No

Apple TV 4K Dolby Vision εικόνα/Dolby Atmos ήχος - Slow Horses S03E01

Code:
General
Complete name                            : Slow.Horses.S03E01.mkv
Format                                   : Matroska
Format version                           : Version 4
File size                                : 7.64 GiB
Duration                                 : 44 min 4 s
Overall bit rate                         : 24.8 Mb/s
Frame rate                               : 23.976 FPS

Video
ID                                       : 1
Format                                   : HEVC
Format/Info                              : High Efficiency Video Coding
Format profile                           : Main 10@L5@High
HDR format                               : Dolby Vision, Version 1.0, dvhe.05.06, BL+RPU
Codec ID                                 : V_MPEGH/ISO/HEVC
Duration                                 : 44 min 4 s
Bit rate                                 : 24.0 Mb/s
Width                                    : 3 840 pixels
Height                                   : 1 920 pixels
Display aspect ratio                     : 2.000
Frame rate mode                          : Constant
Frame rate                               : 23.976 (24000/1001) FPS
Color space                              : YUV
Chroma subsampling                       : 4:2:0
Bit depth                                : 10 bits
Bits/(Pixel*Frame)                       : 0.136
Stream size                              : 7.40 GiB (97%)
Language                                 : English
Default                                  : Yes
Forced                                   : No

Audio
ID                                       : 2
Format                                   : E-AC-3 JOC
Format/Info                              : Enhanced AC-3 with Joint Object Coding
Commercial name                          : Dolby Digital Plus with Dolby Atmos
Codec ID                                 : A_EAC3
Duration                                 : 44 min 4 s
Bit rate mode                            : Constant
Bit rate                                 : 768 kb/s
Channel(s)                               : 6 channels
Channel layout                           : L R C LFE Ls Rs
Sampling rate                            : 48.0 kHz
Frame rate                               : 31.250 FPS (1536 SPF)
Compression mode                         : Lossy
Stream size                              : 242 MiB (3%)
Language                                 : English
Service kind                             : Complete Main
Default                                  : Yes
Forced                                   : No
Complexity index                         : 16
Number of dynamic objects                : 15
Bed channel count                        : 1 channel
Bed channel configuration                : LFE
 

cinephile

Established Member
7 November 2023
180
384kbps DDP είναι στο live cinema 1, 384kbps DD απλό στο on demand, 640kbps DDP το αμερικανικό Hulu, 768 Atmos το Apple TV Plus. Αναλυτικά MediaInfo των αρχείων:

Cosmote Cinema 1 Live 1080 εικόνα / Dolby Digital Plus ήχος - 9 Φεβρουαριου 2024 22:45 "Mile 22"

Code:
General
Complete name                            : mile22 feb9.mkv
Format                                   : Matroska
Format version                           : Version 4
File size                                : 2.50 GiB
Duration                                 : 1 h 35 min
Overall bit rate mode                    : Variable
Overall bit rate                         : 3 774 kb/s
Frame rate                               : 25.000 FPS

Video
ID                                       : 1
Format                                   : AVC
Format/Info                              : Advanced Video Codec
Format profile                           : [email protected]
Format settings                          : CABAC / 4 Ref Frames
Format settings, CABAC                   : Yes
Format settings, Reference frames        : 4 frames
Format settings, GOP                     : M=4, N=25
Codec ID                                 : V_MPEG4/ISO/AVC
Duration                                 : 1 h 35 min
Bit rate mode                            : Variable
Bit rate                                 : 3 388 kb/s
Maximum bit rate                         : 5 500 kb/s
Width                                    : 1 920 pixels
Height                                   : 1 080 pixels
Display aspect ratio                     : 16:9
Active Format Description                : Letterbox 16:9 image
Frame rate mode                          : Constant
Frame rate                               : 25.000 FPS
Standard                                 : Component
Color space                              : YUV
Chroma subsampling                       : 4:2:0
Bit depth                                : 8 bits
Scan type                                : Progressive
Bits/(Pixel*Frame)                       : 0.065
Stream size                              : 2.25 GiB (90%)
Default                                  : Yes
Forced                                   : No
Color range                              : Limited
Color primaries                          : BT.709
Transfer characteristics                 : BT.709
Matrix coefficients                      : BT.709

Audio
ID                                       : 2
Format                                   : E-AC-3
Format/Info                              : Enhanced AC-3
Commercial name                          : Dolby Digital Plus
Codec ID                                 : A_EAC3
Duration                                 : 1 h 35 min
Bit rate mode                            : Constant
Bit rate                                 : 384 kb/s
Channel(s)                               : 6 channels
Channel layout                           : L R C LFE Ls Rs
Sampling rate                            : 48.0 kHz
Frame rate                               : 31.250 FPS (1536 SPF)
Compression mode                         : Lossy
Stream size                              : 261 MiB (10%)
Language                                 : English
Service kind                             : Complete Main
Default                                  : Yes
Forced                                   : No

Cosmote On Demand 1080 εικόνα / Dolby Digital ήχος - Transformers 5

Code:
General
Complete name                            : transformers5.mkv
Format                                   : Matroska
Format version                           : Version 4
File size                                : 6.99 GiB
Duration                                 : 2 h 28 min
Overall bit rate mode                    : Constant
Overall bit rate                         : 6 753 kb/s
Frame rate                               : 25.000 FPS

Video
ID                                       : 1
Format                                   : AVC
Format/Info                              : Advanced Video Codec
Format profile                           : Main@L4
Format settings                          : CABAC / 4 Ref Frames
Format settings, CABAC                   : Yes
Format settings, Reference frames        : 4 frames
Codec ID                                 : V_MPEG4/ISO/AVC
Duration                                 : 2 h 28 min
Bit rate mode                            : Constant
Bit rate                                 : 6 500 kb/s
Width                                    : 1 920 pixels
Height                                   : 1 080 pixels
Display aspect ratio                     : 16:9
Frame rate mode                          : Constant
Frame rate                               : 25.000 FPS
Color space                              : YUV
Chroma subsampling                       : 4:2:0
Bit depth                                : 8 bits
Scan type                                : Progressive
Bits/(Pixel*Frame)                       : 0.125
Stream size                              : 6.59 GiB (94%)
Writing library                          : x264 core 155
Encoding settings                        : cabac=1 / ref=4 / deblock=1:0:0 / analyse=0x1:0x111 / me=hex / subme=7 / psy=1 / psy_rd=1.00:0.00 / mixed_ref=1 / me_range=16 / chroma_me=1 / trellis=1 / 8x8dct=0 / cqm=0 / deadzone=21,11 / fast_pskip=1 / chroma_qp_offset=-2 / threads=36 / lookahead_threads=6 / sliced_threads=0 / slices=1 / nr=0 / decimate=1 / interlaced=0 / bluray_compat=0 / stitchable=1 / constrained_intra=0 / bframes=4 / b_pyramid=0 / b_adapt=1 / b_bias=0 / direct=1 / weightb=1 / open_gop=0 / weightp=1 / keyint=48 / keyint_min=4 / scenecut=0 / intra_refresh=0 / rc_lookahead=40 / rc=cbr / mbtree=1 / bitrate=6500 / ratetol=1.0 / qcomp=0.60 / qpmin=0 / qpmax=69 / qpstep=4 / vbv_maxrate=6500 / vbv_bufsize=26000 / nal_hrd=cbr / filler=1 / ip_ratio=1.40 / aq=1:1.00
Language                                 : English
Default                                  : Yes
Forced                                   : No

Audio
ID                                       : 2
Format                                   : AC-3
Format/Info                              : Audio Coding 3
Commercial name                          : Dolby Digital
Codec ID                                 : A_AC3
Duration                                 : 2 h 28 min
Bit rate mode                            : Constant
Bit rate                                 : 384 kb/s
Channel(s)                               : 6 channels
Channel layout                           : L R C LFE Ls Rs
Sampling rate                            : 48.0 kHz
Frame rate                               : 31.250 FPS (1536 SPF)
Compression mode                         : Lossy
Stream size                              : 407 MiB (6%)
Language                                 : English
Service kind                             : Complete Main
Default                                  : Yes
Forced                                   : No

Cosmote On Demand 1080 εικόνα / Dolby Digital ήχος - Fargo S05E01

Code:
General
Complete name                            : fargo_s5e1_vod.mkv
Format                                   : Matroska
Format version                           : Version 4
File size                                : 2.42 GiB
Duration                                 : 53 min 50 s
Overall bit rate mode                    : Constant
Overall bit rate                         : 6 439 kb/s
Frame rate                               : 25.000 FPS

Video
ID                                       : 1
Format                                   : AVC
Format/Info                              : Advanced Video Codec
Format profile                           : Main@L4
Format settings                          : CABAC / 4 Ref Frames
Format settings, CABAC                   : Yes
Format settings, Reference frames        : 4 frames
Format settings, GOP                     : M=5, N=48
Codec ID                                 : V_MPEG4/ISO/AVC
Duration                                 : 53 min 50 s
Bit rate mode                            : Constant
Bit rate                                 : 6 053 kb/s
Nominal bit rate                         : 6 500 kb/s
Width                                    : 1 920 pixels
Height                                   : 1 080 pixels
Display aspect ratio                     : 16:9
Frame rate mode                          : Constant
Frame rate                               : 25.000 FPS
Color space                              : YUV
Chroma subsampling                       : 4:2:0
Bit depth                                : 8 bits
Scan type                                : Progressive
Bits/(Pixel*Frame)                       : 0.117
Stream size                              : 2.28 GiB (94%)
Writing library                          : x264 core 155
Encoding settings                        : cabac=1 / ref=4 / deblock=1:0:0 / analyse=0x1:0x111 / me=hex / subme=7 / psy=1 / psy_rd=1.00:0.00 / mixed_ref=1 / me_range=16 / chroma_me=1 / trellis=1 / 8x8dct=0 / cqm=0 / deadzone=21,11 / fast_pskip=1 / chroma_qp_offset=-2 / threads=36 / lookahead_threads=6 / sliced_threads=0 / slices=1 / nr=0 / decimate=1 / interlaced=0 / bluray_compat=0 / stitchable=1 / constrained_intra=0 / bframes=4 / b_pyramid=0 / b_adapt=1 / b_bias=0 / direct=1 / weightb=1 / open_gop=0 / weightp=1 / keyint=48 / keyint_min=4 / scenecut=0 / intra_refresh=0 / rc_lookahead=40 / rc=cbr / mbtree=1 / bitrate=6500 / ratetol=1.0 / qcomp=0.60 / qpmin=0 / qpmax=69 / qpstep=4 / vbv_maxrate=6500 / vbv_bufsize=26000 / nal_hrd=cbr / filler=1 / ip_ratio=1.40 / aq=1:1.00
Language                                 : English
Default                                  : Yes
Forced                                   : No

Audio
ID                                       : 2
Format                                   : AC-3
Format/Info                              : Audio Coding 3
Commercial name                          : Dolby Digital
Codec ID                                 : A_AC3
Duration                                 : 53 min 50 s
Bit rate mode                            : Constant
Bit rate                                 : 384 kb/s
Channel(s)                               : 6 channels
Channel layout                           : L R C LFE Ls Rs
Sampling rate                            : 48.0 kHz
Frame rate                               : 31.250 FPS (1536 SPF)
Compression mode                         : Lossy
Stream size                              : 148 MiB (6%)
Language                                 : English
Service kind                             : Complete Main
Default                                  : Yes
Forced                                   : No

Hulu 4K εικόνα/Dolby Digital Plus ήχος - Fargo S05E01

Code:
General
Complete name                            : Fargo.S05E01.mkv
Format                                   : Matroska
Format version                           : Version 4
File size                                : 6.18 GiB
Duration                                 : 57 min 28 s
Overall bit rate                         : 15.4 Mb/s
Frame rate                               : 23.976 FPS

Video
ID                                       : 1
Format                                   : HEVC
Format/Info                              : High Efficiency Video Coding
Format profile                           : Main [email protected]@Main
Codec ID                                 : V_MPEGH/ISO/HEVC
Duration                                 : 57 min 28 s
Bit rate                                 : 14.8 Mb/s
Width                                    : 3 840 pixels
Height                                   : 2 160 pixels
Display aspect ratio                     : 16:9
Frame rate mode                          : Constant
Frame rate                               : 23.976 (24000/1001) FPS
Color space                              : YUV
Chroma subsampling                       : 4:2:0
Bit depth                                : 10 bits
Bits/(Pixel*Frame)                       : 0.074
Stream size                              : 5.92 GiB (96%)
Default                                  : Yes
Forced                                   : No
Color range                              : Limited

Audio
ID                                       : 2
Format                                   : E-AC-3
Format/Info                              : Enhanced AC-3
Commercial name                          : Dolby Digital Plus
Codec ID                                 : A_EAC3
Duration                                 : 56 min 29 s
Bit rate mode                            : Constant
Bit rate                                 : 640 kb/s
Channel(s)                               : 6 channels
Channel layout                           : L R C LFE Ls Rs
Sampling rate                            : 48.0 kHz
Frame rate                               : 31.250 FPS (1536 SPF)
Compression mode                         : Lossy
Stream size                              : 259 MiB (4%)
Language                                 : English
Service kind                             : Complete Main
Default                                  : Yes
Forced                                   : No

Apple TV 4K Dolby Vision εικόνα/Dolby Atmos ήχος - Slow Horses S03E01

Code:
General
Complete name                            : Slow.Horses.S03E01.mkv
Format                                   : Matroska
Format version                           : Version 4
File size                                : 7.64 GiB
Duration                                 : 44 min 4 s
Overall bit rate                         : 24.8 Mb/s
Frame rate                               : 23.976 FPS

Video
ID                                       : 1
Format                                   : HEVC
Format/Info                              : High Efficiency Video Coding
Format profile                           : Main 10@L5@High
HDR format                               : Dolby Vision, Version 1.0, dvhe.05.06, BL+RPU
Codec ID                                 : V_MPEGH/ISO/HEVC
Duration                                 : 44 min 4 s
Bit rate                                 : 24.0 Mb/s
Width                                    : 3 840 pixels
Height                                   : 1 920 pixels
Display aspect ratio                     : 2.000
Frame rate mode                          : Constant
Frame rate                               : 23.976 (24000/1001) FPS
Color space                              : YUV
Chroma subsampling                       : 4:2:0
Bit depth                                : 10 bits
Bits/(Pixel*Frame)                       : 0.136
Stream size                              : 7.40 GiB (97%)
Language                                 : English
Default                                  : Yes
Forced                                   : No

Audio
ID                                       : 2
Format                                   : E-AC-3 JOC
Format/Info                              : Enhanced AC-3 with Joint Object Coding
Commercial name                          : Dolby Digital Plus with Dolby Atmos
Codec ID                                 : A_EAC3
Duration                                 : 44 min 4 s
Bit rate mode                            : Constant
Bit rate                                 : 768 kb/s
Channel(s)                               : 6 channels
Channel layout                           : L R C LFE Ls Rs
Sampling rate                            : 48.0 kHz
Frame rate                               : 31.250 FPS (1536 SPF)
Compression mode                         : Lossy
Stream size                              : 242 MiB (3%)
Language                                 : English
Service kind                             : Complete Main
Default                                  : Yes
Forced                                   : No
Complexity index                         : 16
Number of dynamic objects                : 15
Bed channel count                        : 1 channel
Bed channel configuration                : LFE
Σε ευχαριστω πολυ.Βλεπω το απλο d.d με το d.d plus ενω εχουν ιδιο bitrate στα 384 kbs ,το οte cinema 1 με το on demand , η διαφορα στον ηχο ειναι παρα πολυ καλυτερη στο d.d plus του ote cinema 1.Ξερει καποιος γιατι συμβαινει σε ιδια kbs να εχουμε διαφορα στον ηχο? Ωραια πινακακια.Τhanks!
 

cinephile

Established Member
7 November 2023
180
Αν εχεις χρονο μεσα στην εβδομαδα θα ηθελα να ανεβαζες ενα τετοιο πινακακι για το mission imposible το καινουργιο του τομ κρουζ που θα το εχει στο REPLAY TV ομως! Ο καλος ηχος διατηρειται και εκει για το 7 ημερο που κραταει το REPLAY.Αν μπορουσες θα το ηθελα.
 

Hacker?pcs

Senior Member
22 August 2010
520
Cosmote Cinema 1 Live 1080 εικόνα / Dolby Digital Plus ήχος - 11 Φεβρουαριου 2024 21:00 Πρεμιέρα "Mission: Impossible 7 Dead Reckoning Part One"



Code:
General
Complete name                            : Mission Impossible 7_live.mkv
Format                                   : Matroska
Format version                           : Version 4
File size                                : 4.61 GiB
Duration                                 : 2 h 50 min
Overall bit rate mode                    : Variable
Overall bit rate                         : 3 880 kb/s
Frame rate                               : 25.000 FPS

Video
ID                                       : 1
Format                                   : AVC
Format/Info                              : Advanced Video Codec
Format profile                           : [email protected]
Format settings                          : CABAC / 4 Ref Frames
Format settings, CABAC                   : Yes
Format settings, Reference frames        : 4 frames
Codec ID                                 : V_MPEG4/ISO/AVC
Duration                                 : 2 h 50 min
Bit rate mode                            : Variable
Bit rate                                 : 3 494 kb/s
Maximum bit rate                         : 5 500 kb/s
Width                                    : 1 920 pixels
Height                                   : 1 080 pixels
Display aspect ratio                     : 16:9
Active Format Description                : Letterbox 16:9 image
Frame rate mode                          : Constant
Frame rate                               : 25.000 FPS
Standard                                 : Component
Color space                              : YUV
Chroma subsampling                       : 4:2:0
Bit depth                                : 8 bits
Scan type                                : Progressive
Bits/(Pixel*Frame)                       : 0.067
Stream size                              : 4.15 GiB (90%)
Default                                  : Yes
Forced                                   : No
Color range                              : Limited
Color primaries                          : BT.709
Transfer characteristics                 : BT.709
Matrix coefficients                      : BT.709

Audio
ID                                       : 2
Format                                   : E-AC-3
Format/Info                              : Enhanced AC-3
Commercial name                          : Dolby Digital Plus
Codec ID                                 : A_EAC3
Duration                                 : 2 h 50 min
Bit rate mode                            : Constant
Bit rate                                 : 384 kb/s
Channel(s)                               : 6 channels
Channel layout                           : L R C LFE Ls Rs
Sampling rate                            : 48.0 kHz
Frame rate                               : 31.250 FPS (1536 SPF)
Compression mode                         : Lossy
Stream size                              : 467 MiB (10%)
Language                                 : English
Service kind                             : Complete Main
Default                                  : Yes
Forced                                   : No

Spectrogram Cinema 1 Live 1ο λεπτό:



Cosmote On Demand 1080 εικόνα / Dolby Digital ήχος - Mission: Impossible 7 Dead Reckoning Part One



Code:
General
Complete name                            : Mission Impossible 7_vod.mkv
Format                                   : Matroska
Format version                           : Version 4
File size                                : 7.31 GiB
Duration                                 : 2 h 36 min
Overall bit rate mode                    : Constant
Overall bit rate                         : 6 677 kb/s
Frame rate                               : 25.000 FPS

Video
ID                                       : 1
Format                                   : AVC
Format/Info                              : Advanced Video Codec
Format profile                           : Main@L4
Format settings                          : CABAC / 4 Ref Frames
Format settings, CABAC                   : Yes
Format settings, Reference frames        : 4 frames
Codec ID                                 : V_MPEG4/ISO/AVC
Duration                                 : 2 h 36 min
Bit rate mode                            : Constant
Bit rate                                 : 6 500 kb/s
Width                                    : 1 920 pixels
Height                                   : 1 080 pixels
Display aspect ratio                     : 16:9
Frame rate mode                          : Constant
Frame rate                               : 25.000 FPS
Color space                              : YUV
Chroma subsampling                       : 4:2:0
Bit depth                                : 8 bits
Scan type                                : Progressive
Bits/(Pixel*Frame)                       : 0.125
Stream size                              : 6.89 GiB (94%)
Writing library                          : x264 core 155
Encoding settings                        : cabac=1 / ref=4 / deblock=1:0:0 / analyse=0x1:0x111 / me=hex / subme=7 / psy=1 / psy_rd=1.00:0.00 / mixed_ref=1 / me_range=16 / chroma_me=1 / trellis=1 / 8x8dct=0 / cqm=0 / deadzone=21,11 / fast_pskip=1 / chroma_qp_offset=-2 / threads=36 / lookahead_threads=6 / sliced_threads=0 / slices=1 / nr=0 / decimate=1 / interlaced=0 / bluray_compat=0 / stitchable=1 / constrained_intra=0 / bframes=4 / b_pyramid=0 / b_adapt=1 / b_bias=0 / direct=1 / weightb=1 / open_gop=0 / weightp=1 / keyint=48 / keyint_min=4 / scenecut=0 / intra_refresh=0 / rc_lookahead=40 / rc=cbr / mbtree=1 / bitrate=6500 / ratetol=1.0 / qcomp=0.60 / qpmin=0 / qpmax=69 / qpstep=4 / vbv_maxrate=6500 / vbv_bufsize=26000 / nal_hrd=cbr / filler=1 / ip_ratio=1.40 / aq=1:1.00
Language                                 : English
Default                                  : Yes
Forced                                   : No

Audio
ID                                       : 2
Format                                   : AC-3
Format/Info                              : Audio Coding 3
Commercial name                          : Dolby Digital
Codec ID                                 : A_AC3
Duration                                 : 2 h 36 min
Bit rate mode                            : Constant
Bit rate                                 : 384 kb/s
Channel(s)                               : 6 channels
Channel layout                           : L R C LFE Ls Rs
Sampling rate                            : 48.0 kHz
Frame rate                               : 31.250 FPS (1536 SPF)
Compression mode                         : Lossy
Stream size                              : 430 MiB (6%)
Language                                 : English
Service kind                             : Complete Main
Default                                  : Yes
Forced                                   : No

Spectrogram vod 1ο λεπτό:






Amazon Prime Video 1080 εικόνα / Dolby Atmos ήχος - Mission: Impossible 7 Dead Reckoning Part One

Code:
General
Complete name                            : Mission.Impossible.Dead.Reckoning.Part.One.Amazon.mkv
Format                                   : Matroska
Format version                           : Version 4
File size                                : 11.8 GiB
Duration                                 : 2 h 46 min
Overall bit rate                         : 10.1 Mb/s
Frame rate                               : 23.976 FPS

Video
ID                                       : 1
Format                                   : AVC
Format/Info                              : Advanced Video Codec
Format profile                           : High@L4
Format settings                          : CABAC / 4 Ref Frames
Format settings, CABAC                   : Yes
Format settings, Reference frames        : 4 frames
Codec ID                                 : V_MPEG4/ISO/AVC
Duration                                 : 2 h 46 min
Bit rate mode                            : Constant
Bit rate                                 : 9 346 kb/s
Nominal bit rate                         : 10 000 kb/s
Width                                    : 1 920 pixels
Height                                   : 800 pixels
Display aspect ratio                     : 2.40:1
Frame rate mode                          : Constant
Frame rate                               : 23.976 (24000/1001) FPS
Color space                              : YUV
Chroma subsampling                       : 4:2:0
Bit depth                                : 8 bits
Scan type                                : Progressive
Bits/(Pixel*Frame)                       : 0.254
Stream size                              : 10.9 GiB (92%)
Language                                 : English (US)
Default                                  : Yes
Forced                                   : No
Color range                              : Limited
Color primaries                          : BT.709
Transfer characteristics                 : BT.709
Matrix coefficients                      : BT.709

Audio
ID                                       : 2
Format                                   : E-AC-3 JOC
Format/Info                              : Enhanced AC-3 with Joint Object Coding
Commercial name                          : Dolby Digital Plus with Dolby Atmos
Codec ID                                 : A_EAC3
Duration                                 : 2 h 43 min
Bit rate mode                            : Constant
Bit rate                                 : 768 kb/s
Channel(s)                               : 6 channels
Channel layout                           : L R C LFE Ls Rs
Sampling rate                            : 48.0 kHz
Frame rate                               : 31.250 FPS (1536 SPF)
Compression mode                         : Lossy
Delay relative to video                  : 21 ms
Stream size                              : 898 MiB (7%)
Language                                 : English (US)
Service kind                             : Complete Main
Default                                  : Yes
Forced                                   : No
Complexity index                         : 16
Number of dynamic objects                : 15
Bed channel count                        : 1 channel
Bed channel configuration                : LFE


Αμερικανικό Bluray 4K Dolby Vision εικόνα / Dolby TrueHD-Atmos ήχος - Mission: Impossible 7 Dead Reckoning Part One

Code:
Disc Title: Mission: Impossible Dead Reckoning Part One
Disc Size: 89,735,566,783 bytes
Protection: AACS2
Length: 2:43:25.795
Total Bitrate: 72.07 Mbps
Video: MPEG-H HEVC Video / 52434 kbps / 2160p / 23.976 fps / 16:9 / Main 10 @ Level 5.1 @ High / 10 bits / HDR10 / BT.2020
* Video: MPEG-H HEVC Video / 3917 kbps / 1080p / 23.976 fps / 16:9 / Main 10 @ Level 5.1 @ High / 10 bits / Dolby Vision / BT.2020
Audio: English / Dolby TrueHD/Atmos Audio / 7.1 / 48 kHz /  3123 kbps / 16-bit (AC3 Embedded: 5.1 / 48 kHz /   448 kbps / DN -27dB)
Audio: English / Dolby Digital Audio / 5.1 / 48 kHz /   640 kbps / DN -27dB
 
  • Like
Reactions: ΓΡΥΠΑΣ

cinephile

Established Member
7 November 2023
180
Cosmote Cinema 1 Live 1080 εικόνα / Dolby Digital Plus ήχος - 11 Φεβρουαριου 2024 21:00 Πρεμιέρα "Mission: Impossible 7 Dead Reckoning Part One"



Code:
General
Complete name                            : Mission Impossible 7_live.mkv
Format                                   : Matroska
Format version                           : Version 4
File size                                : 4.61 GiB
Duration                                 : 2 h 50 min
Overall bit rate mode                    : Variable
Overall bit rate                         : 3 880 kb/s
Frame rate                               : 25.000 FPS

Video
ID                                       : 1
Format                                   : AVC
Format/Info                              : Advanced Video Codec
Format profile                           : [email protected]
Format settings                          : CABAC / 4 Ref Frames
Format settings, CABAC                   : Yes
Format settings, Reference frames        : 4 frames
Codec ID                                 : V_MPEG4/ISO/AVC
Duration                                 : 2 h 50 min
Bit rate mode                            : Variable
Bit rate                                 : 3 494 kb/s
Maximum bit rate                         : 5 500 kb/s
Width                                    : 1 920 pixels
Height                                   : 1 080 pixels
Display aspect ratio                     : 16:9
Active Format Description                : Letterbox 16:9 image
Frame rate mode                          : Constant
Frame rate                               : 25.000 FPS
Standard                                 : Component
Color space                              : YUV
Chroma subsampling                       : 4:2:0
Bit depth                                : 8 bits
Scan type                                : Progressive
Bits/(Pixel*Frame)                       : 0.067
Stream size                              : 4.15 GiB (90%)
Default                                  : Yes
Forced                                   : No
Color range                              : Limited
Color primaries                          : BT.709
Transfer characteristics                 : BT.709
Matrix coefficients                      : BT.709

Audio
ID                                       : 2
Format                                   : E-AC-3
Format/Info                              : Enhanced AC-3
Commercial name                          : Dolby Digital Plus
Codec ID                                 : A_EAC3
Duration                                 : 2 h 50 min
Bit rate mode                            : Constant
Bit rate                                 : 384 kb/s
Channel(s)                               : 6 channels
Channel layout                           : L R C LFE Ls Rs
Sampling rate                            : 48.0 kHz
Frame rate                               : 31.250 FPS (1536 SPF)
Compression mode                         : Lossy
Stream size                              : 467 MiB (10%)
Language                                 : English
Service kind                             : Complete Main
Default                                  : Yes
Forced                                   : No

Spectrogram Cinema 1 Live 1ο λεπτό:



Cosmote On Demand 1080 εικόνα / Dolby Digital ήχος - Mission: Impossible 7 Dead Reckoning Part One



Code:
General
Complete name                            : Mission Impossible 7_vod.mkv
Format                                   : Matroska
Format version                           : Version 4
File size                                : 7.31 GiB
Duration                                 : 2 h 36 min
Overall bit rate mode                    : Constant
Overall bit rate                         : 6 677 kb/s
Frame rate                               : 25.000 FPS

Video
ID                                       : 1
Format                                   : AVC
Format/Info                              : Advanced Video Codec
Format profile                           : Main@L4
Format settings                          : CABAC / 4 Ref Frames
Format settings, CABAC                   : Yes
Format settings, Reference frames        : 4 frames
Codec ID                                 : V_MPEG4/ISO/AVC
Duration                                 : 2 h 36 min
Bit rate mode                            : Constant
Bit rate                                 : 6 500 kb/s
Width                                    : 1 920 pixels
Height                                   : 1 080 pixels
Display aspect ratio                     : 16:9
Frame rate mode                          : Constant
Frame rate                               : 25.000 FPS
Color space                              : YUV
Chroma subsampling                       : 4:2:0
Bit depth                                : 8 bits
Scan type                                : Progressive
Bits/(Pixel*Frame)                       : 0.125
Stream size                              : 6.89 GiB (94%)
Writing library                          : x264 core 155
Encoding settings                        : cabac=1 / ref=4 / deblock=1:0:0 / analyse=0x1:0x111 / me=hex / subme=7 / psy=1 / psy_rd=1.00:0.00 / mixed_ref=1 / me_range=16 / chroma_me=1 / trellis=1 / 8x8dct=0 / cqm=0 / deadzone=21,11 / fast_pskip=1 / chroma_qp_offset=-2 / threads=36 / lookahead_threads=6 / sliced_threads=0 / slices=1 / nr=0 / decimate=1 / interlaced=0 / bluray_compat=0 / stitchable=1 / constrained_intra=0 / bframes=4 / b_pyramid=0 / b_adapt=1 / b_bias=0 / direct=1 / weightb=1 / open_gop=0 / weightp=1 / keyint=48 / keyint_min=4 / scenecut=0 / intra_refresh=0 / rc_lookahead=40 / rc=cbr / mbtree=1 / bitrate=6500 / ratetol=1.0 / qcomp=0.60 / qpmin=0 / qpmax=69 / qpstep=4 / vbv_maxrate=6500 / vbv_bufsize=26000 / nal_hrd=cbr / filler=1 / ip_ratio=1.40 / aq=1:1.00
Language                                 : English
Default                                  : Yes
Forced                                   : No

Audio
ID                                       : 2
Format                                   : AC-3
Format/Info                              : Audio Coding 3
Commercial name                          : Dolby Digital
Codec ID                                 : A_AC3
Duration                                 : 2 h 36 min
Bit rate mode                            : Constant
Bit rate                                 : 384 kb/s
Channel(s)                               : 6 channels
Channel layout                           : L R C LFE Ls Rs
Sampling rate                            : 48.0 kHz
Frame rate                               : 31.250 FPS (1536 SPF)
Compression mode                         : Lossy
Stream size                              : 430 MiB (6%)
Language                                 : English
Service kind                             : Complete Main
Default                                  : Yes
Forced                                   : No

Spectrogram vod 1ο λεπτό:






Amazon Prime Video 1080 εικόνα / Dolby Atmos ήχος - Mission: Impossible 7 Dead Reckoning Part One

Code:
General
Complete name                            : Mission.Impossible.Dead.Reckoning.Part.One.Amazon.mkv
Format                                   : Matroska
Format version                           : Version 4
File size                                : 11.8 GiB
Duration                                 : 2 h 46 min
Overall bit rate                         : 10.1 Mb/s
Frame rate                               : 23.976 FPS

Video
ID                                       : 1
Format                                   : AVC
Format/Info                              : Advanced Video Codec
Format profile                           : High@L4
Format settings                          : CABAC / 4 Ref Frames
Format settings, CABAC                   : Yes
Format settings, Reference frames        : 4 frames
Codec ID                                 : V_MPEG4/ISO/AVC
Duration                                 : 2 h 46 min
Bit rate mode                            : Constant
Bit rate                                 : 9 346 kb/s
Nominal bit rate                         : 10 000 kb/s
Width                                    : 1 920 pixels
Height                                   : 800 pixels
Display aspect ratio                     : 2.40:1
Frame rate mode                          : Constant
Frame rate                               : 23.976 (24000/1001) FPS
Color space                              : YUV
Chroma subsampling                       : 4:2:0
Bit depth                                : 8 bits
Scan type                                : Progressive
Bits/(Pixel*Frame)                       : 0.254
Stream size                              : 10.9 GiB (92%)
Language                                 : English (US)
Default                                  : Yes
Forced                                   : No
Color range                              : Limited
Color primaries                          : BT.709
Transfer characteristics                 : BT.709
Matrix coefficients                      : BT.709

Audio
ID                                       : 2
Format                                   : E-AC-3 JOC
Format/Info                              : Enhanced AC-3 with Joint Object Coding
Commercial name                          : Dolby Digital Plus with Dolby Atmos
Codec ID                                 : A_EAC3
Duration                                 : 2 h 43 min
Bit rate mode                            : Constant
Bit rate                                 : 768 kb/s
Channel(s)                               : 6 channels
Channel layout                           : L R C LFE Ls Rs
Sampling rate                            : 48.0 kHz
Frame rate                               : 31.250 FPS (1536 SPF)
Compression mode                         : Lossy
Delay relative to video                  : 21 ms
Stream size                              : 898 MiB (7%)
Language                                 : English (US)
Service kind                             : Complete Main
Default                                  : Yes
Forced                                   : No
Complexity index                         : 16
Number of dynamic objects                : 15
Bed channel count                        : 1 channel
Bed channel configuration                : LFE


Αμερικανικό Bluray 4K Dolby Vision εικόνα / Dolby TrueHD-Atmos ήχος - Mission: Impossible 7 Dead Reckoning Part One

Code:
Disc Title: Mission: Impossible Dead Reckoning Part One
Disc Size: 89,735,566,783 bytes
Protection: AACS2
Length: 2:43:25.795
Total Bitrate: 72.07 Mbps
Video: MPEG-H HEVC Video / 52434 kbps / 2160p / 23.976 fps / 16:9 / Main 10 @ Level 5.1 @ High / 10 bits / HDR10 / BT.2020
* Video: MPEG-H HEVC Video / 3917 kbps / 1080p / 23.976 fps / 16:9 / Main 10 @ Level 5.1 @ High / 10 bits / Dolby Vision / BT.2020
Audio: English / Dolby TrueHD/Atmos Audio / 7.1 / 48 kHz /  3123 kbps / 16-bit (AC3 Embedded: 5.1 / 48 kHz /   448 kbps / DN -27dB)
Audio: English / Dolby Digital Audio / 5.1 / 48 kHz /   640 kbps / DN -27dB
Ευχαριστω για ολα.Αλλα το τελευταιο τι το εβαλες....μας εκανες κομματια!!